<?xml version="1.0" standalone="no"?>
<!DOCTYPE svg PUBLIC "-//W3C//DTD SVG 1.1//EN" "http://www.w3.org/Graphics/SVG/1.1/DTD/svg11.dtd" >
<svg xmlns="http://www.w3.org/2000/svg">
<metadata></metadata>
<defs>
<font id="sweden_sansregular" horiz-adv-x="1343" >
<font-face units-per-em="2048" ascent="1536" descent="-512" />
<missing-glyph horiz-adv-x="491" />
<glyph unicode="&#xfb01;" horiz-adv-x="1290" d="M63 870v168h115v43q0 86 18.5 154.5t58.5 122.5t108.5 83t162.5 29h129v-176h-129q-87 0 -125.5 -55t-38.5 -158v-43h631v-870h256v-168h-635v168h195v702h-447v-870h-184v870h-115zM770 1339q0 54 37.5 92.5t91.5 38.5t92.5 -38.5t38.5 -92.5t-38.5 -91.5t-92.5 -37.5 t-91.5 37.5t-37.5 91.5z" />
<glyph unicode="&#xfb02;" horiz-adv-x="1290" d="M63 870v168h115v43q0 86 18.5 154.5t58.5 122.5t108.5 83t162.5 29h467v-1302h256v-168h-635v168h195v1135h-283q-164 0 -164 -222v-43h191v-168h-191v-870h-184v870h-115z" />
<glyph unicode="&#xfb03;" horiz-adv-x="1921" d="M63 870v168h115v43q0 86 18.5 154.5t57.5 122.5t106.5 83t159.5 29q156 0 258 -88l-108 -149q-55 61 -144 61q-87 0 -125.5 -55t-38.5 -158v-43h447v43q0 86 18.5 154.5t58.5 122.5t108.5 83t162.5 29h129v-176h-129q-87 0 -125.5 -55t-38.5 -158v-43h631v-870h256v-168 h-635v168h195v702h-447v-870h-184v870h-447v-870h-184v870h-115zM1401 1339q0 54 37.5 92.5t91.5 38.5t92.5 -38.5t38.5 -92.5t-38.5 -91.5t-92.5 -37.5t-91.5 37.5t-37.5 91.5z" />
<glyph unicode="&#xfb04;" horiz-adv-x="1921" d="M63 870v168h115v43q0 86 18.5 154.5t57.5 122.5t106.5 83t159.5 29q156 0 258 -88l-108 -149q-55 61 -144 61q-87 0 -125.5 -55t-38.5 -158v-43h447v43q0 86 18.5 154.5t58.5 122.5t108.5 83t162.5 29h467v-1302h256v-168h-635v168h195v1135h-283q-164 0 -164 -222v-43 h191v-168h-191v-870h-184v870h-447v-870h-184v870h-115z" />
<glyph horiz-adv-x="0" />
<glyph horiz-adv-x="0" />
<glyph horiz-adv-x="682" />
<glyph unicode="&#xd;" horiz-adv-x="1024" />
<glyph unicode=" "  horiz-adv-x="491" />
<glyph unicode="&#x09;" horiz-adv-x="491" />
<glyph unicode="&#xa0;" horiz-adv-x="491" />
<glyph unicode="!" horiz-adv-x="514" d="M133 119q0 53 35.5 89t87.5 36t88.5 -36t36.5 -89q0 -52 -36 -87.5t-89 -35.5q-52 0 -87.5 35t-35.5 88zM133 1051l10 407h222l10 -407l-70 -691h-104z" />
<glyph unicode="&#x22;" horiz-adv-x="690" d="M127 1327l12 131h152l12 -131l-37 -237h-102zM387 1327l12 131h152l12 -131l-37 -237h-102z" />
<glyph unicode="#" horiz-adv-x="1005" d="M6 344l17 117h190l53 391h-192l16 117h191l45 317h112l-43 -317h301l45 317h113l-45 -317h190l-16 -117h-188l-54 -391h191l-14 -117h-191l-51 -344h-113l49 344h-303l-49 -344h-113l50 344h-191zM326 461h303l53 391h-303z" />
<glyph unicode="$" horiz-adv-x="1007" d="M70 434l149 37q12 -131 73.5 -208.5t168.5 -92.5v492l-107 47q-121 53 -184.5 136t-63.5 218q0 172 99.5 279.5t255.5 125.5v146h104v-148q151 -18 240.5 -125t89.5 -284l-152 -37q-20 227 -178 264v-465l103 -45q63 -28 108 -57.5t84 -73t58.5 -104t19.5 -138.5 q0 -180 -103.5 -287.5t-269.5 -123.5v-183h-104v183q-175 15 -283 134t-108 310zM297 1081q0 -45 13.5 -81t40.5 -61.5t50.5 -41t59.5 -33.5v420q-71 -14 -117.5 -67t-46.5 -136zM565 172q80 15 131.5 68.5t51.5 146.5q0 48 -14 84.5t-43 63t-55.5 43t-70.5 36.5v-442z" />
<glyph unicode="%" horiz-adv-x="1501" d="M104 1104q0 -96 24 -168.5t64.5 -113t88.5 -60t102 -19.5q53 0 100 19.5t87.5 60t64.5 113t24 168.5q0 97 -24 170.5t-64.5 114.5t-87.5 61t-100 20q-54 0 -102 -20t-88.5 -61t-64.5 -114.5t-24 -170.5zM240 1104q0 70 12.5 119t34.5 73.5t45.5 34.5t50.5 10q26 0 49 -10 t45.5 -34.5t35.5 -74t13 -118.5q0 -70 -13 -119.5t-35.5 -74t-45 -34.5t-49.5 -10q-143 0 -143 238zM250 -12l858 1482h135l-858 -1482h-135zM842 348q0 -96 23.5 -168.5t64.5 -113t88.5 -59.5t101.5 -19q53 0 100 19.5t88 59.5t65 112.5t24 168.5q0 97 -24 170.5t-65 115 t-88 61.5t-100 20q-54 0 -101.5 -20t-88.5 -61.5t-64.5 -115t-23.5 -170.5zM977 348q0 70 12.5 119t34.5 73.5t45.5 35t50.5 10.5q26 0 49.5 -10.5t46 -35t35.5 -74t13 -118.5q0 -70 -13 -119.5t-35.5 -73.5t-45.5 -34t-50 -10q-143 0 -143 237z" />
<glyph unicode="&#x26;" horiz-adv-x="1290" d="M82 399q0 150 75.5 255t196.5 171l-8 11q-74 93 -109.5 160t-35.5 151q0 141 100.5 232t267.5 91q160 0 253 -86.5t93 -236.5q0 -84 -33.5 -152.5t-83 -112.5t-126.5 -91l-31 -19l309 -366q87 116 90 241l154 -78q-11 -172 -121 -311l217 -258h-243l-109 127 q-186 -139 -399 -139q-212 0 -334.5 111t-122.5 300zM268 408q0 -102 72 -164t199 -62q145 0 276 90l-340 404q-47 -28 -77 -50t-63.5 -55t-50 -74t-16.5 -89zM395 1143q0 -45 21 -88t73 -101l35 -39l31 19q89 53 130.5 100.5t41.5 110.5q0 68 -43 109.5t-123 41.5 q-77 0 -121.5 -40.5t-44.5 -112.5z" />
<glyph unicode="'" horiz-adv-x="507" d="M166 1327l12 131h152l12 -131l-37 -229h-102z" />
<glyph unicode="(" horiz-adv-x="606" d="M123 608q0 248 95 510.5t241 464.5h106q-235 -517 -235 -962q0 -247 64.5 -516t170.5 -515h-104q-154 192 -246 481.5t-92 536.5z" />
<glyph unicode=")" horiz-adv-x="606" d="M41 -410q106 246 170.5 515t64.5 516q0 445 -235 962h106q146 -202 241 -464.5t95 -510.5q0 -247 -92 -536.5t-246 -481.5h-104z" />
<glyph unicode="*" horiz-adv-x="729" d="M74 1053l92 63l106 37l-106 41l-92 63l57 99l100 -47l86 -76l-18 115l8 110h115l8 -110l-22 -117l90 78l100 47l57 -99l-92 -63l-108 -41l108 -37l92 -63l-57 -99l-100 47l-88 74l20 -112l-8 -111h-115l-8 111l18 110l-86 -72l-100 -47z" />
<glyph unicode="+" horiz-adv-x="1124" d="M96 569v160h387v387h160v-387h385v-160h-385v-385h-160v385h-387z" />
<glyph unicode="," horiz-adv-x="530" d="M141 119q0 53 35.5 89t87.5 36t88.5 -36.5t36.5 -84.5q0 -38 -20 -88l-101 -254h-108l55 223q-34 14 -54 44.5t-20 70.5z" />
<glyph unicode="-" horiz-adv-x="833" d="M109 487v160h616v-160h-616z" />
<glyph unicode="." horiz-adv-x="530" d="M141 119q0 53 35.5 89t87.5 36t88.5 -36t36.5 -89q0 -52 -36 -87.5t-89 -35.5q-52 0 -87.5 35t-35.5 88z" />
<glyph unicode="/" horiz-adv-x="663" d="M16 -12l490 1482h141l-489 -1482h-142z" />
<glyph unicode="0" horiz-adv-x="1261" d="M82 729q0 159 31.5 286.5t84 211t124.5 139.5t148.5 80t160.5 24t160.5 -24t148.5 -80t124.5 -139.5t84 -211t31.5 -286.5t-31.5 -286.5t-84 -211t-124.5 -139.5t-148.5 -80t-160.5 -24t-160.5 24t-148.5 80t-124.5 139.5t-84 211t-31.5 286.5zM274 727q0 -211 52 -340 l520 821q-82 82 -215 82q-54 0 -100.5 -13t-95.5 -51t-83 -98.5t-56 -163t-22 -237.5zM432 233q81 -65 199 -65q53 0 99.5 13t95 51t83 98t56.5 162.5t22 236.5q0 191 -43 318z" />
<glyph unicode="1" horiz-adv-x="931" d="M102 0v168h275v1067l-209 -176l-55 162l264 237h188v-1290h275v-168h-738z" />
<glyph unicode="2" horiz-adv-x="1030" d="M61 0v182l537 572q81 88 113 149.5t32 140.5q0 113 -56.5 179.5t-166.5 66.5q-120 0 -186 -79t-66 -220h-192q0 226 121 352.5t323 126.5q192 0 304 -113t112 -304q0 -43 -7.5 -84t-14.5 -70t-28.5 -66.5t-31.5 -55.5t-42 -56t-41.5 -48.5t-47.5 -51.5l-393 -424h639 v-197h-908z" />
<glyph unicode="3" horiz-adv-x="1040" d="M82 406h192q0 -114 66 -176t186 -62q119 0 179.5 61.5t60.5 178.5q0 119 -62 185t-180 66h-61v177h61q106 0 161.5 56.5t55.5 164.5q0 110 -56 171.5t-161 61.5q-114 0 -173.5 -61.5t-59.5 -175.5h-193q0 199 115 308t311 109q188 0 299 -108.5t111 -300.5 q0 -211 -158 -305q182 -105 182 -353q0 -198 -116 -306.5t-316 -108.5q-202 0 -323 109.5t-121 308.5z" />
<glyph unicode="4" horiz-adv-x="1044" d="M51 309v137l574 1012h209v-981h161v-168h-161v-309h-189v309h-594zM272 477h373v653z" />
<glyph unicode="5" horiz-adv-x="1081" d="M82 365h192q0 -94 65.5 -145.5t180.5 -51.5q287 0 287 332q0 321 -270 321q-91 0 -156 -35t-90 -98h-191l99 770h774v-196h-608l-41 -312q94 51 225 51q207 0 328.5 -132t121.5 -373q0 -243 -127 -375.5t-354 -132.5q-196 0 -316 98.5t-120 278.5z" />
<glyph unicode="6" horiz-adv-x="1081" d="M82 446q0 217 139 439l361 573h233l-352 -538q41 6 86 6q207 0 328.5 -123t121.5 -346t-121 -346t-329 -123q-212 0 -339.5 122.5t-127.5 335.5zM274 457q0 -138 72 -213.5t201 -75.5q128 0 194 75.5t66 213.5q0 137 -66 212.5t-194 75.5q-129 0 -201 -75t-72 -213z" />
<glyph unicode="7" horiz-adv-x="966" d="M33 1262v196h901v-182l-578 -1276h-206l577 1262h-694z" />
<glyph unicode="8" horiz-adv-x="1052" d="M82 406q0 253 190 358q-141 99 -141 311q0 188 106 291.5t289 103.5t289.5 -103.5t106.5 -291.5q0 -212 -144 -311q193 -105 193 -358q0 -199 -121.5 -308.5t-323.5 -109.5t-323 109.5t-121 308.5zM274 410q0 -118 64.5 -180t187.5 -62t187.5 62t64.5 180 q0 120 -64.5 188t-187.5 68t-187.5 -68t-64.5 -188zM324 1071q0 -106 53 -165.5t149 -59.5t149.5 59.5t53.5 165.5q0 105 -53 162t-150 57t-149.5 -56.5t-52.5 -162.5z" />
<glyph unicode="9" horiz-adv-x="1081" d="M82 1001q0 223 121.5 346t331.5 123q211 0 337.5 -123.5t126.5 -342.5q0 -210 -139 -431l-360 -573h-234l352 539q-51 -7 -86 -7q-207 0 -328.5 123t-121.5 346zM274 1001q0 -137 66 -212.5t195 -75.5t200.5 75t71.5 213t-71.5 213.5t-200.5 75.5q-128 0 -194.5 -76 t-66.5 -213z" />
<glyph unicode=":" horiz-adv-x="530" d="M141 119q0 53 35.5 89t87.5 36t88.5 -36t36.5 -89q0 -52 -36 -87.5t-89 -35.5q-52 0 -87.5 35t-35.5 88zM141 555q0 53 35.5 89t87.5 36t88.5 -36t36.5 -89q0 -52 -36 -87.5t-89 -35.5q-52 0 -87.5 35t-35.5 88z" />
<glyph unicode=";" horiz-adv-x="530" d="M141 119q0 53 35.5 89t87.5 36t88.5 -36.5t36.5 -84.5q0 -38 -20 -88l-101 -254h-108l55 223q-34 14 -54 44.5t-20 70.5zM141 555q0 53 35.5 89t87.5 36t88.5 -36t36.5 -89q0 -52 -36 -87.5t-89 -35.5q-52 0 -87.5 35t-35.5 88z" />
<glyph unicode="&#x3c;" horiz-adv-x="1124" d="M96 575v150l932 397v-172l-727 -299v-2l727 -299v-172z" />
<glyph unicode="=" horiz-adv-x="1124" d="M96 365v159h932v-159h-932zM96 774v160h932v-160h-932z" />
<glyph unicode="&#x3e;" horiz-adv-x="1124" d="M96 178v172l727 299v2l-727 299v172l932 -397v-150z" />
<glyph unicode="?" horiz-adv-x="985" d="M59 1032q0 209 110 323.5t300 114.5q184 0 297 -102t113 -268q0 -35 -7 -69.5t-13.5 -60t-26 -61t-28 -51.5t-38.5 -53.5t-37 -46.5t-43.5 -50.5t-40.5 -45.5l-74 -89q-32 -39 -32 -120v-74h-193v90q0 59 11 98.5t42 77.5l125 168q77 103 109.5 161t32.5 116 q0 89 -52 144.5t-149 55.5q-102 0 -157.5 -67.5t-55.5 -190.5h-193zM319 119q0 53 35.5 89t87.5 36t88.5 -36t36.5 -89q0 -52 -36 -87.5t-89 -35.5q-52 0 -87.5 35t-35.5 88z" />
<glyph unicode="@" horiz-adv-x="1531" d="M78 322q0 215 102 391.5t283 277.5t405 101q130 0 236.5 -36t185 -106.5t121.5 -181.5t43 -254q0 -230 -104.5 -378t-251.5 -148q-84 0 -134 49.5t-67 122.5q-131 -172 -283 -172q-73 0 -123.5 45.5t-71 110t-20.5 139.5q0 94 35 187.5t94.5 168t147.5 120.5t186 46 q122 0 248 -60l-104 -507q0 -66 28.5 -103t81.5 -37q56 0 100.5 43t69 110t37 137.5t12.5 135.5q0 114 -38.5 203t-105.5 143.5t-153.5 82.5t-187.5 28q-140 0 -261.5 -52.5t-205 -141t-131 -207.5t-47.5 -250q0 -130 47 -232t129 -165.5t189 -96.5t231 -33q86 0 173 18 t142.5 38t132.5 53l31 -102q-262 -121 -510 -121q-142 0 -266 40t-219.5 116t-151 199t-55.5 278zM532 279q0 -94 38 -132t92 -38q53 0 98.5 32.5t74 82t45.5 92.5t25 81l60 258q-59 35 -119 35q-61 0 -114 -26.5t-89 -69.5t-61.5 -97.5t-37.5 -110t-12 -107.5z" />
<glyph unicode="A" horiz-adv-x="1171" d="M4 0l479 1458h205l479 -1458h-194l-121 373h-533l-120 -373h-195zM377 553h416l-207 639z" />
<glyph unicode="B" horiz-adv-x="1138" d="M123 0v1458h434q218 0 338.5 -110.5t120.5 -296.5q0 -199 -148 -301q189 -101 189 -340q0 -189 -120.5 -299.5t-338.5 -110.5h-475zM311 180h273q132 0 206 60t74 174t-73.5 172.5t-206.5 58.5h-273v-465zM311 825h232q133 0 206.5 56.5t73.5 167.5q0 109 -74 169 t-206 60h-232v-453z" />
<glyph unicode="C" horiz-adv-x="1249" d="M102 729q0 158 33 286t88 211t129.5 139.5t153 80.5t162.5 24q78 0 149.5 -21.5t138.5 -65.5t122 -120.5t89 -179.5l-182 -45q-83 252 -317 252q-54 0 -103 -13.5t-100 -51.5t-87 -98t-59.5 -162.5t-23.5 -235.5q0 -134 23.5 -236.5t60 -162.5t87.5 -98t100 -51t104 -13 q230 0 313 244l184 -37q-34 -103 -89 -179.5t-122 -120.5t-138.5 -65.5t-149.5 -21.5q-84 0 -162.5 24t-153 80.5t-129.5 139.5t-88 211t-33 286z" />
<glyph unicode="D" horiz-adv-x="1230" d="M123 0v1458h442q84 0 162.5 -24t152 -79.5t128 -137.5t87.5 -208t33 -282q0 -153 -31.5 -277.5t-84 -207t-123.5 -138t-146.5 -80t-156.5 -24.5h-463zM311 180h254q45 0 85.5 10t84 32t78.5 63.5t63.5 99t44 144.5t15.5 194q0 132 -24.5 233.5t-62.5 161t-91.5 97 t-104.5 50.5t-108 13h-234v-1098z" />
<glyph unicode="E" horiz-adv-x="1073" d="M123 0v1458h889v-180h-701v-453h432v-180h-432v-465h701v-180h-889z" />
<glyph unicode="F" horiz-adv-x="1021" d="M123 0v1458h889v-180h-701v-473h432v-180h-432v-625h-188z" />
<glyph unicode="G" horiz-adv-x="1288" d="M102 729q0 158 33 286t88 211t129 139.5t152 80.5t162 24q105 0 197 -37t172.5 -126.5t123.5 -223.5l-182 -45q-79 252 -309 252q-54 0 -103 -13.5t-100 -51.5t-87 -98t-59.5 -162.5t-23.5 -235.5q0 -134 23.5 -236.5t60 -162.5t87.5 -98t100 -51t104 -13q234 0 317 244 v129h-313v180h502v-721h-168l-11 106q-135 -118 -327 -118q-85 0 -164.5 24.5t-153.5 80.5t-129 139.5t-88 211.5t-33 285z" />
<glyph unicode="H" horiz-adv-x="1226" d="M123 0v1458h188v-639h604v639h189v-1458h-189v639h-604v-639h-188z" />
<glyph unicode="I" horiz-adv-x="880" d="M72 0v147h274v1164h-274v147h737v-147h-274v-1164h274v-147h-737z" />
<glyph unicode="J" horiz-adv-x="1048" d="M51 442l189 37q0 -157 62.5 -234t180.5 -77q112 0 176 66.5t64 183.5v872h-346v168h534v-1040q0 -187 -121 -308.5t-311 -121.5q-189 0 -308.5 122t-119.5 332z" />
<glyph unicode="K" horiz-adv-x="1204" d="M123 0v1458h188v-663l588 663h238l-564 -631l631 -827h-229l-524 690l-140 -155v-535h-188z" />
<glyph unicode="L" horiz-adv-x="923" d="M123 0v1458h188v-1278h551v-180h-739z" />
<glyph unicode="M" horiz-adv-x="1396" d="M123 0v1458h207l368 -665l369 665h207v-1458h-189v1130l-337 -612h-99l-338 612v-1130h-188z" />
<glyph unicode="N" horiz-adv-x="1333" d="M123 0v1458h199l700 -1124v1124h188v-1458h-198l-701 1126v-1126h-188z" />
<glyph unicode="O" d="M102 729q0 158 33 285.5t88 211t129.5 140t154 80.5t165.5 24t165.5 -24t154 -80.5t129 -140t87.5 -211t33 -285.5t-33 -285.5t-87.5 -211t-129 -140t-154 -80.5t-165.5 -24t-165.5 24t-154 80.5t-129.5 140t-88 211t-33 285.5zM295 729q0 -134 23 -236.5t59.5 -162.5 t88 -98t101 -51t105.5 -13t105.5 13t101 51t88 98t59.5 162.5t23 236.5q0 112 -15.5 202t-44 149.5t-64 102t-79.5 65t-86 32.5t-88 10t-88 -10t-86 -32.5t-79.5 -65t-64 -102t-44 -149.5t-15.5 -202z" />
<glyph unicode="P" horiz-adv-x="1128" d="M123 0v1458h475q218 0 338.5 -118.5t120.5 -321.5q0 -201 -120 -315.5t-339 -114.5h-287v-588h-188zM311 768h273q134 0 207 62.5t73 187.5q0 126 -74 193t-206 67h-273v-510z" />
<glyph unicode="Q" d="M102 729q0 158 33 285.5t88 211t129.5 140t154 80.5t165.5 24t165.5 -24t154 -80.5t129 -140t87.5 -211t33 -285.5q0 -144 -27 -262.5t-73 -200t-109.5 -140.5t-132.5 -90t-147 -42v-221h-160v221q-78 11 -147.5 42t-133 90t-109.5 140.5t-73 200t-27 262.5zM295 729 q0 -494 297 -555v262h160v-262q297 61 297 555q0 112 -15.5 202t-44 149.5t-64 102t-79.5 65t-86 32.5t-88 10t-88 -10t-86 -32.5t-79.5 -65t-64 -102t-44 -149.5t-15.5 -202z" />
<glyph unicode="R" horiz-adv-x="1122" d="M123 0v1458h475q218 0 338.5 -113.5t120.5 -306.5q0 -172 -96.5 -277.5t-276.5 -127.5l410 -633h-213l-416 629h-154v-629h-188zM311 809h273q134 0 207 57t73 172q0 116 -74 178t-206 62h-273v-469z" />
<glyph unicode="S" horiz-adv-x="1089" d="M61 434l168 37q15 -144 96 -223.5t224 -79.5q118 0 201.5 54.5t83.5 164.5q0 30 -8 56.5t-18.5 45.5t-32.5 38t-38 30.5t-48.5 27t-50.5 22.5t-56 22l-203 80q-134 53 -204.5 136t-70.5 218q0 187 128 297t323 110q192 0 308 -110.5t116 -302.5l-168 -37 q-13 135 -81.5 202.5t-178.5 67.5q-105 0 -179.5 -55.5t-74.5 -153.5q0 -48 18 -85t55 -63.5t66 -41t78 -33.5l213 -84q70 -28 119.5 -57.5t93.5 -73t66 -104t22 -138.5q0 -130 -63.5 -225t-169.5 -141.5t-240 -46.5q-218 0 -356 120.5t-138 325.5z" />
<glyph unicode="T" horiz-adv-x="1064" d="M10 1278v180h1045v-180h-428v-1278h-189v1278h-428z" />
<glyph unicode="U" horiz-adv-x="1218" d="M123 446v1012h188v-997q0 -139 75.5 -216t223.5 -77t222.5 76.5t74.5 216.5v997h189v-1012q0 -218 -130.5 -338t-355.5 -120t-356 120t-131 338z" />
<glyph unicode="V" horiz-adv-x="1130" d="M4 1458h195l366 -1147l367 1147h194l-479 -1458h-164z" />
<glyph unicode="W" horiz-adv-x="1583" d="M4 1458h195l254 -1124l243 921h191l241 -921l256 1124h195l-350 -1458h-189l-249 965l-248 -965h-189z" />
<glyph unicode="X" horiz-adv-x="1146" d="M4 0l461 760l-420 698h215l313 -518l314 518h215l-420 -698l461 -760h-219l-351 580l-350 -580h-219z" />
<glyph unicode="Y" horiz-adv-x="1077" d="M4 1458h201l334 -661l333 661h201l-440 -895v-563h-189v563z" />
<glyph unicode="Z" horiz-adv-x="1048" d="M61 0v168l691 1110h-658v180h893v-149l-700 -1129h698v-180h-924z" />
<glyph unicode="[" horiz-adv-x="628" d="M147 -410v1995h439v-131h-244v-1733h244v-131h-439z" />
<glyph unicode="\" horiz-adv-x="663" d="M16 1470h142l489 -1482h-141z" />
<glyph unicode="]" horiz-adv-x="628" d="M43 -279h244v1733h-244v131h438v-1995h-438v131z" />
<glyph unicode="^" horiz-adv-x="1228" d="M102 580l445 878h135l444 -878h-151l-359 714h-4l-358 -714h-152z" />
<glyph unicode="_" horiz-adv-x="1024" d="M0 -147h1024v-115h-1024v115z" />
<glyph unicode="`" horiz-adv-x="446" d="M-59 1540h209l208 -369h-143z" />
<glyph unicode="a" horiz-adv-x="1019" d="M70 291q0 145 95 223.5t273 89.5l275 17v51q0 98 -54.5 150t-158.5 52q-153 0 -226 -94l-151 43q31 100 138 164t249 64q179 0 283 -101t104 -258v-692h-174l-4 76q-115 -88 -287 -88q-160 0 -261 75t-101 228zM258 295q0 -28 7 -49t25.5 -41t57.5 -30.5t98 -10.5 q171 0 267 119v192l-275 -16q-180 -11 -180 -164z" />
<glyph unicode="b" horiz-adv-x="1112" d="M135 0v1458h184v-518q114 111 277 111q66 0 127.5 -17.5t120.5 -58t102 -100.5t69.5 -152t26.5 -205q0 -140 -39.5 -246t-105.5 -166t-142.5 -89t-160.5 -29q-167 0 -279 112l-6 -100h-174zM319 467q36 -303 273 -303q39 0 73 8t70 32t61.5 62t41.5 103t16 151 q0 354 -266 354q-44 0 -83.5 -11t-79 -37.5t-68 -80.5t-38.5 -131v-147z" />
<glyph unicode="c" horiz-adv-x="978" d="M70 518q0 141 39 247.5t106 167t147 89.5t173 29q140 0 240 -65.5t134 -188.5l-164 -43q-64 120 -217 120q-41 0 -76 -8t-72 -32t-63 -62t-42.5 -103t-16.5 -151q0 -85 16.5 -149.5t42.5 -102.5t62.5 -62t71.5 -32t75 -8q154 0 219 129l164 -43q-34 -125 -132.5 -193.5 t-244.5 -68.5q-93 0 -172.5 29t-146 89t-105 166t-38.5 246z" />
<glyph unicode="d" horiz-adv-x="1112" d="M70 520q0 113 26.5 204.5t69.5 151t102 100t120.5 58t127.5 17.5q162 0 277 -109v516h184v-1458h-174l-6 102q-114 -114 -281 -114q-83 0 -159 29t-142 89t-105.5 167t-39.5 247zM258 520q0 -356 266 -356q44 0 83.5 11t79 37.5t68 80.5t38.5 131v147q-36 303 -273 303 q-39 0 -73 -8t-70 -32t-61.5 -62t-41.5 -102.5t-16 -149.5z" />
<glyph unicode="e" horiz-adv-x="1052" d="M70 516q0 114 26 206t69.5 152.5t103 101t123.5 58t134 17.5t134 -17.5t123.5 -58t103.5 -100.5t70 -152t26 -205v-53h-723q19 -301 272 -301q178 0 254 129l164 -43q-36 -125 -147 -193.5t-264 -68.5q-95 0 -176.5 29t-148.5 89t-105.5 165t-38.5 245zM262 608h526 q-10 78 -37 133t-65.5 82.5t-77 39t-82.5 11.5q-229 0 -264 -266z" />
<glyph unicode="f" horiz-adv-x="655" d="M63 870v168h115v43q0 86 18.5 154.5t57.5 122.5t106.5 83t159.5 29q156 0 258 -88l-108 -149q-55 61 -144 61q-87 0 -125.5 -55t-38.5 -158v-43h218v-168h-218v-870h-184v870h-115z" />
<glyph unicode="g" horiz-adv-x="1112" d="M70 520q0 113 26.5 204.5t69.5 151t102 100t120.5 58t127.5 17.5q165 0 281 -113l6 100h174v-1040q0 -190 -122 -310t-329 -120q-157 0 -266 71t-143 191l164 43q76 -129 254 -129q125 0 191.5 67.5t66.5 186.5v100q-110 -110 -277 -110q-83 0 -159 29t-142 89 t-105.5 167t-39.5 247zM258 518q0 -354 266 -354q44 0 83.5 11t79 37.5t68 80.5t38.5 131v147q-36 303 -273 303q-39 0 -73 -8t-70 -32t-61.5 -62t-41.5 -103t-16 -151z" />
<glyph unicode="h" horiz-adv-x="1071" d="M135 0v1458h184v-504q108 97 250 97q54 0 105 -13.5t99 -46t84 -81t57.5 -123t21.5 -166.5v-621h-184v602q0 82 -18.5 138.5t-51 84t-65 38.5t-70.5 11t-71 -10t-66.5 -34.5t-57.5 -74t-33 -120.5v-635h-184z" />
<glyph unicode="i" horiz-adv-x="724" d="M70 0v168h215v702h-215v168h399v-870h215v-168h-614zM246 1339q0 54 37.5 92.5t91.5 38.5t92.5 -38.5t38.5 -92.5t-38.5 -91.5t-92.5 -37.5t-91.5 37.5t-37.5 91.5z" />
<glyph unicode="j" horiz-adv-x="727" d="M-111 -272l142 94q81 -78 176 -78q92 0 146.5 68.5t54.5 185.5v872h-297v168h481v-1040q0 -186 -111 -308t-282 -122q-198 0 -310 160zM369 1339q0 54 37.5 92.5t91.5 38.5t92.5 -38.5t38.5 -92.5t-38.5 -91.5t-92.5 -37.5t-91.5 37.5t-37.5 91.5z" />
<glyph unicode="k" horiz-adv-x="1026" d="M135 0v1458h184v-772l394 354h248l-443 -399l492 -641h-219l-404 522l-68 -61v-461h-184z" />
<glyph unicode="l" horiz-adv-x="724" d="M70 0v168h215v1122h-215v168h399v-1290h215v-168h-614z" />
<glyph unicode="m" horiz-adv-x="1646" d="M135 0v1038h174l4 -84q105 97 238 97q86 0 166 -39t131 -119q112 158 297 158q69 0 131 -23t116.5 -71.5t86.5 -135t32 -200.5v-621h-184v602q0 81 -18.5 138t-50.5 84.5t-64 38.5t-70 11q-181 0 -209 -239v-635h-184v602q0 81 -18.5 138t-50.5 84.5t-64 38.5t-70 11 q-181 0 -209 -239v-635h-184z" />
<glyph unicode="n" horiz-adv-x="1071" d="M135 0v1038h174l4 -90q109 103 256 103q54 0 105 -13.5t99 -46t84 -81t57.5 -123t21.5 -166.5v-621h-184v602q0 82 -18.5 138.5t-51 84t-65 38.5t-70.5 11t-71 -10t-66.5 -34.5t-57.5 -74t-33 -120.5v-635h-184z" />
<glyph unicode="o" horiz-adv-x="1050" d="M70 518q0 113 26 205t69.5 152t103 100.5t123.5 58t134 17.5q69 0 133 -17.5t123.5 -58t103 -100.5t69.5 -152t26 -205t-26 -204t-69.5 -151t-103 -100t-123.5 -57.5t-133 -17.5q-70 0 -134 17.5t-123.5 57.5t-103 100t-69.5 151t-26 204zM258 518q0 -85 16.5 -149.5 t42.5 -102.5t62.5 -62t71.5 -32t75 -8t75 8t71.5 32t62 62t42 102.5t16.5 149.5q0 86 -16.5 151t-42 103t-62 62t-71.5 32t-75 8t-75 -8t-71.5 -32t-62.5 -62t-42.5 -103t-16.5 -151z" />
<glyph unicode="p" horiz-adv-x="1112" d="M135 -420v1458h174l6 -102q112 115 281 115q66 0 127.5 -17.5t120.5 -58t102 -100.5t69.5 -152t26.5 -205q0 -140 -39.5 -246t-105.5 -166t-142 -89t-159 -29q-166 0 -277 108v-516h-184zM319 467q36 -303 273 -303q39 0 73 8t70 32t61.5 62t41.5 103t16 151 q0 354 -266 354q-44 0 -83.5 -11t-79 -37.5t-68 -80.5t-38.5 -131v-147z" />
<glyph unicode="q" horiz-adv-x="1075" d="M70 520q0 113 26.5 204.5t69.5 151t102 100t120.5 58t127.5 17.5q165 0 281 -113l6 100h174v-1458h-184v518q-110 -110 -277 -110q-83 0 -159 29t-142 89t-105.5 167t-39.5 247zM258 518q0 -354 266 -354q44 0 83.5 11t79 37.5t68 80.5t38.5 131v147q-36 303 -273 303 q-39 0 -73 -8t-70 -32t-61.5 -62t-41.5 -103t-16 -151z" />
<glyph unicode="r" horiz-adv-x="673" d="M135 0v1038h174l6 -141q110 154 271 154q30 0 80 -4l-21 -209q-35 12 -84 12q-40 0 -75 -11t-71 -38.5t-61 -83t-35 -135.5v-582h-184z" />
<glyph unicode="s" horiz-adv-x="921" d="M70 250l163 43q66 -129 232 -129q86 0 140 32t54 101q0 19 -4 33.5t-17 28t-24 22t-39 21t-47 20t-63 23.5t-74 28q-50 19 -80 32.5t-71 39t-64 52.5t-40 68t-17 91q0 132 99.5 213.5t252.5 81.5q131 0 220 -64t122 -190l-164 -43q-53 120 -178 120q-72 0 -118 -31 t-46 -83q0 -13 3 -24t10.5 -20.5t16 -17.5t24.5 -16.5t29 -14.5t37.5 -15.5t43.5 -16t51.5 -18.5t57.5 -21q63 -23 106 -46t84 -58t61.5 -83.5t20.5 -111.5q0 -100 -54 -171t-142 -104.5t-199 -33.5q-153 0 -251.5 66t-135.5 196z" />
<glyph unicode="t" horiz-adv-x="681" d="M43 870v168h115v316h184v-316h258v-168h-258v-534q0 -89 24.5 -130.5t86.5 -41.5q48 0 155 35l13 -160q-83 -51 -183 -51q-147 0 -213.5 89t-66.5 238v555h-115z" />
<glyph unicode="u" horiz-adv-x="1091" d="M135 418v620h184v-602q0 -272 209 -272q30 0 58 5.5t59.5 21.5t55.5 41.5t43.5 69.5t27.5 101v635h184v-1038h-174l-6 92q-116 -104 -272 -104q-70 0 -132.5 23t-117 71.5t-87 134.5t-32.5 201z" />
<glyph unicode="v" horiz-adv-x="942" d="M4 1038h201l266 -776l266 776h201l-371 -1038h-192z" />
<glyph unicode="w" horiz-adv-x="1271" d="M4 1038h201l184 -755l172 612h150l172 -612l184 755h201l-260 -1038h-205l-168 594l-166 -594h-205z" />
<glyph unicode="x" horiz-adv-x="946" d="M20 0l345 539l-322 499h213l215 -336l215 336h215l-321 -499l346 -539h-213l-242 371l-240 -371h-211z" />
<glyph unicode="y" horiz-adv-x="931" d="M4 1038h201l260 -741l262 741h201l-531 -1458h-184l158 449z" />
<glyph unicode="z" horiz-adv-x="911" d="M70 0v150l536 720h-512v168h740v-159l-533 -711h533v-168h-764z" />
<glyph unicode="{" horiz-adv-x="569" d="M29 520v135q75 0 117 70.5t42 175.5v477q0 102 57 154.5t144 52.5h174v-131h-90q-48 0 -69 -33t-21 -100v-469q0 -63 -21 -114.5t-51.5 -81t-55 -45.5t-42.5 -21v-4q18 -5 42.5 -21t55 -45.5t51.5 -81t21 -114.5v-469q0 -67 21 -100.5t69 -33.5h90v-131h-174 q-87 0 -144 52.5t-57 154.5v477q0 105 -42 175.5t-117 70.5z" />
<glyph unicode="|" horiz-adv-x="440" d="M147 -512v2048h146v-2048h-146z" />
<glyph unicode="}" horiz-adv-x="546" d="M6 -279h90q48 0 69 33.5t21 100.5v469q0 63 21 114.5t51.5 81t55 45.5t42.5 21v4q-18 5 -42.5 21t-55 45.5t-51.5 81t-21 114.5v469q0 67 -21 100t-69 33h-90v131h174q87 0 144 -52.5t57 -154.5v-477q0 -105 42.5 -175.5t117.5 -70.5v-135q-75 0 -117.5 -70.5 t-42.5 -175.5v-477q0 -102 -57 -154.5t-144 -52.5h-174v131z" />
<glyph unicode="~" horiz-adv-x="1187" d="M141 510q85 158 234 158q54 0 116.5 -22t110 -49t105 -49t102.5 -22q30 0 55.5 8.5t48.5 29t39 38.5t41 51l54 -129q-85 -157 -232 -157q-54 0 -117.5 22t-112.5 48.5t-107 48.5t-101 22q-51 0 -89.5 -28.5t-92.5 -96.5z" />
<glyph unicode="&#xa1;" horiz-adv-x="514" d="M133 -12l68 690h104l70 -690l-10 -408h-222zM133 920q0 52 35 87t88 35t89 -35t36 -87t-36.5 -88.5t-88.5 -36.5t-87.5 36t-35.5 89z" />
<glyph unicode="&#xa2;" horiz-adv-x="978" d="M70 518q0 132 33.5 233.5t93 163t131.5 94.5t157 40v186h82v-186q128 -8 218.5 -72t123.5 -180l-164 -43q-55 102 -178 118v-706q122 16 178 127l164 -43q-32 -117 -121 -185t-221 -75v-191h-82v191q-86 7 -158 39.5t-131 93.5t-92.5 162t-33.5 233zM258 518 q0 -94 19.5 -163t53 -107.5t71.5 -57.5t83 -24v704q-227 -28 -227 -352z" />
<glyph unicode="&#xa3;" horiz-adv-x="933" d="M59 616v134h121q-84 217 -84 305q0 191 112.5 303t283.5 112q167 0 271.5 -110.5t104.5 -302.5l-151 -37q-11 137 -74.5 203.5t-150.5 66.5q-88 0 -146.5 -62t-58.5 -175q0 -50 13.5 -107t28 -96t40.5 -100h374v-134h-323q24 -81 24 -137q0 -145 -122 -299h591l-41 -180 h-806l20 180h57q125 143 125 262q0 62 -39 174h-170z" />
<glyph unicode="&#xa4;" horiz-adv-x="1134" d="M55 717q0 163 103 307l-103 100l103 105l98 -103q141 103 311 103q177 0 312 -107l102 105l96 -101l-102 -98q104 -139 104 -311q0 -175 -104 -311l102 -99l-102 -102l-101 102q-132 -102 -307 -102q-172 0 -311 102l-98 -102l-97 96l99 100q-105 134 -105 316zM170 717 q0 -169 114 -283.5t283 -114.5q168 0 283 115t115 283q0 167 -115.5 282t-282.5 115q-168 0 -282.5 -114.5t-114.5 -282.5z" />
<glyph unicode="&#xa5;" horiz-adv-x="954" d="M4 1458h201l272 -661l273 661h200l-291 -667h222v-134h-279l-31 -73v-80h310v-133h-310v-371h-188v371h-309v133h309v80l-33 73h-276v134h219z" />
<glyph unicode="&#xa6;" horiz-adv-x="419" d="M147 -358v782h125v-782h-125zM147 674v708h125v-708h-125z" />
<glyph unicode="&#xa7;" horiz-adv-x="968" d="M94 -94l164 43q66 -150 225 -150q83 0 136 41t53 123q0 30 -8.5 52t-21.5 37t-42.5 31t-56 27t-79 33.5t-95.5 42.5q-47 22 -80.5 41.5t-72.5 52t-63 69t-40.5 90.5t-16.5 118q0 124 55 206t152 120q-79 44 -120.5 103t-41.5 153q0 148 101 239.5t258 91.5 q126 0 214.5 -64t121.5 -189l-164 -43q-29 75 -72.5 108t-107.5 33q-81 0 -132 -44.5t-51 -113.5q0 -23 5 -40.5t19.5 -34t28 -28t43.5 -27.5t52 -26t68 -31t77 -36q49 -23 80.5 -40.5t72 -49.5t63.5 -66t39.5 -87.5t16.5 -117.5q0 -126 -56.5 -209.5t-155.5 -123.5 q92 -49 137 -110t45 -159q0 -155 -104 -241t-269 -86q-146 0 -244.5 68.5t-132.5 193.5zM268 549q0 -81 39.5 -121.5t179.5 -105.5q97 3 156 68.5t59 193.5q0 30 -2.5 50.5t-15.5 40t-22.5 30t-42.5 28.5t-55.5 28.5t-79.5 35.5q-6 3 -9 4q-95 -5 -151 -67t-56 -185z" />
<glyph unicode="&#xa8;" horiz-adv-x="544" d="M-45 1311q0 53 35.5 89t87.5 36t88.5 -36t36.5 -89q0 -52 -36 -87.5t-89 -35.5q-52 0 -87.5 35t-35.5 88zM342 1311q0 53 35.5 89t87.5 36q53 0 89 -36t36 -89q0 -52 -36 -87.5t-89 -35.5t-88 35t-35 88z" />
<glyph unicode="&#xa9;" horiz-adv-x="1638" d="M78 729q0 151 58.5 288.5t157.5 236.5t236.5 157.5t288.5 58.5q202 0 372.5 -99t270 -269.5t99.5 -372.5t-99.5 -372.5t-270 -269.5t-372.5 -99q-151 0 -288.5 58.5t-236.5 157.5t-157.5 236.5t-58.5 288.5zM197 729q0 -137 47.5 -255.5t130 -201.5t197.5 -130.5 t247 -47.5t247.5 47.5t198 130.5t130 201.5t47.5 255.5t-47.5 255.5t-130 201.5t-198 130.5t-247.5 47.5t-247 -47.5t-197.5 -130.5t-130 -201.5t-47.5 -255.5zM385 729q0 102 26 184t68 135t99.5 88.5t117 50.5t123.5 15q138 0 247 -76.5t165 -238.5l-148 -35 q-67 205 -264 205q-39 0 -75 -7.5t-74 -30t-65.5 -57.5t-45.5 -95t-18 -138t18 -138t46 -94.5t66.5 -56.5t74.5 -29.5t75 -7.5q192 0 260 199l150 -31q-56 -162 -165 -238.5t-247 -76.5q-64 0 -123.5 15t-116.5 51t-99.5 89t-68.5 135t-26 183z" />
<glyph unicode="&#xaa;" horiz-adv-x="638" d="M12 948q0 101 66.5 156t189.5 63l181 11v30q0 129 -138 129q-100 0 -151 -63l-113 35q24 70 98.5 115.5t171.5 45.5q123 0 196 -70.5t73 -178.5v-473h-129l-4 45q-73 -54 -189 -54q-111 0 -181.5 52t-70.5 157zM20 494v129h566v-129h-566zM152 952q0 -38 25.5 -61 t96.5 -23q112 0 175 78v123l-181 -10q-116 -6 -116 -107z" />
<glyph unicode="&#xab;" horiz-adv-x="1019" d="M96 567l408 404l47 -121l-246 -283l246 -282l-47 -121zM469 567l408 404l47 -121l-246 -283l246 -282l-47 -121z" />
<glyph unicode="&#xad;" horiz-adv-x="833" d="M109 487v160h616v-160h-616z" />
<glyph unicode="&#xae;" horiz-adv-x="976" d="M78 1059q0 170 119.5 290.5t289.5 120.5t291 -120.5t121 -290.5t-121 -290t-291 -120t-289.5 120t-119.5 290zM160 1059q0 -135 96 -231.5t231 -96.5t232.5 96.5t97.5 231.5t-97.5 232.5t-232.5 97.5t-231 -97.5t-96 -232.5zM348 854v434h146q69 0 106 -36.5t37 -96.5 q0 -47 -22 -80t-62 -43l111 -178h-101l-114 174h-13v-174h-88zM436 1108h53q60 0 60 47q0 45 -60 45h-53v-92z" />
<glyph unicode="&#xaf;" horiz-adv-x="499" d="M-49 1243v135h598v-135h-598z" />
<glyph unicode="&#xb0;" horiz-adv-x="665" d="M117 1253q0 91 62 154t153 63t154 -63t63 -154t-63 -153t-154 -62t-153 62t-62 153zM209 1253q0 -53 35.5 -88t87.5 -35q54 0 88.5 35t34.5 88q0 54 -34.5 88.5t-88.5 34.5q-53 0 -88 -34.5t-35 -88.5z" />
<glyph unicode="&#xb1;" horiz-adv-x="1124" d="M96 184v160h932v-160h-932zM96 651v160h387v305h160v-305h385v-160h-385v-241h-160v241h-387z" />
<glyph unicode="&#xb2;" horiz-adv-x="608" d="M31 596v117l313 334q46 49 65 85t19 82q0 61 -30 96.5t-91 35.5q-64 0 -100.5 -46.5t-36.5 -128.5h-133q0 140 74 219.5t196 79.5q115 0 183.5 -68.5t68.5 -184.5q0 -45 -9 -82t-30 -70t-37.5 -53t-48.5 -54l-215 -231h359v-131h-547z" />
<glyph unicode="&#xb3;" horiz-adv-x="550" d="M10 848h133q0 -65 37 -101t103 -36q127 0 127 129q0 137 -129 137h-45v123h45q116 0 116 119q0 61 -30 94t-86 33q-62 0 -94.5 -35.5t-32.5 -102.5h-134q0 123 71 192.5t190 69.5q113 0 178 -65.5t65 -181.5q0 -121 -80 -181q97 -68 97 -204q0 -121 -68.5 -184.5 t-189.5 -63.5q-126 0 -199.5 66t-73.5 192z" />
<glyph unicode="&#xb4;" horiz-adv-x="446" d="M88 1171l209 369h209l-275 -369h-143z" />
<glyph unicode="&#xb6;" horiz-adv-x="1280" d="M98 1026q0 178 128 305t321 127h500v-125h-74v-1677h-139v1677h-164v-1677h-140v938q-180 0 -306 126t-126 306z" />
<glyph unicode="&#xb7;" horiz-adv-x="464" d="M109 598q0 53 35 89t87 36q53 0 89 -36.5t36 -88.5t-36 -87.5t-89 -35.5q-52 0 -87 35t-35 88z" />
<glyph unicode="&#xb8;" horiz-adv-x="446" d="M10 -330q79 -35 152 -35q47 0 73.5 21t26.5 63q0 75 -86 80l-82 4l47 197h99l-25 -115q36 2 70 -4.5t67 -23t52.5 -49.5t19.5 -80q0 -90 -68 -140.5t-168 -50.5q-99 0 -178 37v96z" />
<glyph unicode="&#xb9;" horiz-adv-x="778" d="M104 596v115h156v589l-115 -96l-36 113l157 145h125v-751h160v-115h-447z" />
<glyph unicode="&#xba;" horiz-adv-x="692" d="M31 1102q0 96 27 169.5t73 115.5t100 62.5t115 20.5t115 -20.5t100 -62.5t73.5 -115.5t27.5 -169.5q0 -77 -18 -139.5t-48.5 -103.5t-72 -68.5t-85.5 -39.5t-92 -12q-61 0 -115 20t-100 61t-73 113.5t-27 168.5zM61 494v129h570v-129h-570zM172 1102q0 -234 174 -234 q176 0 176 234q0 235 -176 235q-174 0 -174 -235z" />
<glyph unicode="&#xbb;" horiz-adv-x="1019" d="M96 285l246 282l-246 283l47 121l408 -404l-408 -403zM469 285l246 282l-246 283l47 121l408 -404l-408 -403z" />
<glyph unicode="&#xbc;" horiz-adv-x="1427" d="M104 1317l37 -113l115 96v-589h-115v-115h365v115h-119v751h-125zM279 -12l858 1482h135l-858 -1482h-135zM799 178h342v-178h127v178h94v115h-94v207h-127v-207h-223v4l376 561h-137l-358 -532v-148z" />
<glyph unicode="&#xbd;" horiz-adv-x="1552" d="M104 1317l37 -113l115 96v-589h-115v-115h365v115h-119v751h-125zM279 -12l858 1482h135l-858 -1482h-135zM940 0h547v131h-359l215 231q32 34 48.5 54t37.5 53t30 70t9 82q0 116 -68 184.5t-183 68.5q-122 0 -196.5 -79.5t-74.5 -219.5h133q0 82 37 128.5t101 46.5 q61 0 90.5 -35.5t29.5 -96.5q0 -46 -19 -82t-65 -85l-313 -334v-117z" />
<glyph unicode="&#xbe;" horiz-adv-x="1396" d="M10 848h133q0 -65 37 -101t103 -36q127 0 127 129q0 137 -129 137h-45v123h45q116 0 116 119q0 61 -30 94t-86 33q-62 0 -94.5 -35.5t-32.5 -102.5h-134q0 123 71 192.5t190 69.5q113 0 178 -65.5t65 -181.5q0 -121 -80 -181q97 -68 97 -204q0 -121 -68.5 -184.5 t-189.5 -63.5q-126 0 -199.5 66t-73.5 192zM248 -12l858 1482h135l-858 -1482h-135zM768 178v148l358 532h138l-377 -561v-4h223v207h127v-207h94v-115h-94v-178h-127v178h-342z" />
<glyph unicode="&#xbf;" horiz-adv-x="985" d="M106 -61q0 35 7 69.5t13.5 60t26 61t28 51.5t38.5 53.5t37 46.5t43.5 50.5t40.5 45.5l74 88q32 39 32 121v73h193v-90q0 -59 -11 -98.5t-42 -77.5l-125 -168q-78 -103 -110 -160.5t-32 -115.5q0 -90 52 -145.5t149 -55.5q102 0 157.5 67.5t55.5 190.5h193 q0 -209 -110 -323.5t-300 -114.5q-184 0 -297 102.5t-113 268.5zM418 920q0 52 36 87t89 35t88 -35t35 -87q0 -53 -35.5 -89t-87.5 -36q-53 0 -89 36.5t-36 88.5z" />
<glyph unicode="&#xc0;" horiz-adv-x="1171" d="M4 0l479 1458h205l479 -1458h-194l-121 373h-533l-120 -373h-195zM319 1950h209l209 -369h-143zM377 553h416l-207 639z" />
<glyph unicode="&#xc1;" horiz-adv-x="1171" d="M4 0l479 1458h205l479 -1458h-194l-121 373h-533l-120 -373h-195zM377 553h416l-207 639zM442 1581l209 369h209l-274 -369h-144z" />
<glyph unicode="&#xc2;" horiz-adv-x="1171" d="M4 0l479 1458h205l479 -1458h-194l-121 373h-533l-120 -373h-195zM305 1581l211 369h154l202 -369h-151l-127 221l-139 -221h-150zM377 553h416l-207 639z" />
<glyph unicode="&#xc3;" horiz-adv-x="1171" d="M4 0l479 1458h205l479 -1458h-194l-121 373h-533l-120 -373h-195zM260 1622q47 223 199 223q52 0 146 -36.5t140 -36.5q44 0 65 20t40 68l111 -23q-17 -102 -61 -162.5t-130 -60.5q-52 0 -147 37t-144 37q-51 0 -71 -21.5t-33 -67.5zM377 553h416l-207 639z" />
<glyph unicode="&#xc4;" horiz-adv-x="1171" d="M4 0l479 1458h205l479 -1458h-194l-121 373h-533l-120 -373h-195zM268 1731q0 53 35.5 88.5t87.5 35.5q53 0 89 -36t36 -88t-36 -87.5t-89 -35.5t-88 35t-35 88zM377 553h416l-207 639zM655 1731q0 53 35.5 88.5t87.5 35.5q53 0 89 -36t36 -88t-36 -87.5t-89 -35.5 q-52 0 -87.5 35t-35.5 88z" />
<glyph unicode="&#xc5;" horiz-adv-x="1171" d="M4 0l479 1458h205l479 -1458h-194l-121 373h-533l-120 -373h-195zM377 553h416l-207 639zM426 1731q0 66 47 112.5t113 46.5t112.5 -46.5t46.5 -112.5t-46.5 -113t-112.5 -47t-113 47t-47 113z" />
<glyph unicode="&#xc6;" horiz-adv-x="1853" d="M-20 0l811 1458h1001v-180h-700v-453h514v-180h-514v-465h700v-180h-889v645h-375l-356 -645h-192zM627 825h276v453h-24z" />
<glyph unicode="&#xc7;" horiz-adv-x="1249" d="M102 729q0 158 33 286t88 211t129.5 139.5t153 80.5t162.5 24q78 0 149.5 -21.5t138.5 -65.5t122 -120.5t89 -179.5l-182 -45q-83 252 -317 252q-54 0 -103 -13.5t-100 -51.5t-87 -98t-59.5 -162.5t-23.5 -235.5q0 -134 23.5 -236.5t60 -162.5t87.5 -98t100 -51t104 -13 q230 0 313 244l184 -37q-34 -103 -89 -179.5t-122 -120.5t-138.5 -65.5t-149.5 -21.5q-84 0 -162.5 24t-153 80.5t-129.5 139.5t-88 211t-33 286zM498 -330q79 -35 151 -35q47 0 74 21t27 63q0 75 -86 80l-82 4l47 197h98l-25 -115q36 2 70 -4.5t67 -23t52.5 -49.5t19.5 -80 q0 -90 -67.5 -140.5t-167.5 -50.5q-99 0 -178 37v96z" />
<glyph unicode="&#xc8;" horiz-adv-x="1073" d="M123 0v1458h889v-180h-701v-453h432v-180h-432v-465h701v-180h-889zM365 1950h208l209 -369h-143z" />
<glyph unicode="&#xc9;" horiz-adv-x="1073" d="M123 0v1458h889v-180h-701v-453h432v-180h-432v-465h701v-180h-889zM365 1581l208 369h209l-274 -369h-143z" />
<glyph unicode="&#xca;" horiz-adv-x="1073" d="M123 0v1458h889v-180h-701v-453h432v-180h-432v-465h701v-180h-889zM291 1581l211 369h153l203 -369h-151l-127 221l-140 -221h-149z" />
<glyph unicode="&#xcb;" horiz-adv-x="1073" d="M123 0v1458h889v-180h-701v-453h432v-180h-432v-465h701v-180h-889zM256 1720q0 53 35.5 89t87.5 36q53 0 89 -36.5t36 -88.5t-36 -87.5t-89 -35.5t-88 35.5t-35 87.5zM643 1720q0 53 35.5 89t87.5 36t88.5 -36.5t36.5 -88.5t-36 -87.5t-89 -35.5q-52 0 -87.5 35.5 t-35.5 87.5z" />
<glyph unicode="&#xcc;" horiz-adv-x="880" d="M72 0v147h274v1164h-274v147h737v-147h-274v-1164h274v-147h-737zM205 1950h209l209 -369h-144z" />
<glyph unicode="&#xcd;" horiz-adv-x="880" d="M72 0v147h274v1164h-274v147h737v-147h-274v-1164h274v-147h-737zM205 1581l209 369h209l-275 -369h-143z" />
<glyph unicode="&#xce;" horiz-adv-x="880" d="M72 0v147h274v1164h-274v147h737v-147h-274v-1164h274v-147h-737zM152 1581l210 369h154l203 -369h-152l-127 221l-139 -221h-149z" />
<glyph unicode="&#xcf;" horiz-adv-x="880" d="M72 0v147h274v1164h-274v147h737v-147h-274v-1164h274v-147h-737zM123 1720q0 53 35.5 89t87.5 36t88.5 -36.5t36.5 -88.5t-36 -87.5t-89 -35.5q-52 0 -87.5 35.5t-35.5 87.5zM510 1720q0 53 35.5 89t87.5 36q53 0 89 -36.5t36 -88.5t-36 -87.5t-89 -35.5t-88 35.5 t-35 87.5z" />
<glyph unicode="&#xd0;" horiz-adv-x="1230" d="M12 668v153h111v637h442q84 0 162.5 -24t152 -79.5t128 -137.5t87.5 -208t33 -282q0 -153 -31.5 -277.5t-84 -207t-123.5 -138t-146.5 -80t-156.5 -24.5h-463v668h-111zM311 180h254q45 0 85.5 10t84 32t78.5 63.5t63.5 99t44 144.5t15.5 194q0 132 -24.5 233.5 t-62.5 161t-91.5 97t-104.5 50.5t-108 13h-234v-457h377v-153h-377v-488z" />
<glyph unicode="&#xd1;" horiz-adv-x="1333" d="M123 0v1458h199l700 -1124v1124h188v-1458h-198l-701 1126v-1126h-188zM319 1622q47 223 199 223q52 0 146.5 -36.5t140.5 -36.5q44 0 64.5 20t39.5 68l111 -23q-17 -102 -61 -162.5t-130 -60.5q-53 0 -147 37t-143 37q-51 0 -72 -22t-33 -67z" />
<glyph unicode="&#xd2;" d="M102 729q0 158 33 285.5t88 211t129.5 140t154 80.5t165.5 24t165.5 -24t154 -80.5t129 -140t87.5 -211t33 -285.5t-33 -285.5t-87.5 -211t-129 -140t-154 -80.5t-165.5 -24t-165.5 24t-154 80.5t-129.5 140t-88 211t-33 285.5zM295 729q0 -134 23 -236.5t59.5 -162.5 t88 -98t101 -51t105.5 -13t105.5 13t101 51t88 98t59.5 162.5t23 236.5q0 112 -15.5 202t-44 149.5t-64 102t-79.5 65t-86 32.5t-88 10t-88 -10t-86 -32.5t-79.5 -65t-64 -102t-44 -149.5t-15.5 -202zM479 1950h209l209 -369h-143z" />
<glyph unicode="&#xd3;" d="M102 729q0 158 33 285.5t88 211t129.5 140t154 80.5t165.5 24t165.5 -24t154 -80.5t129 -140t87.5 -211t33 -285.5t-33 -285.5t-87.5 -211t-129 -140t-154 -80.5t-165.5 -24t-165.5 24t-154 80.5t-129.5 140t-88 211t-33 285.5zM295 729q0 -134 23 -236.5t59.5 -162.5 t88 -98t101 -51t105.5 -13t105.5 13t101 51t88 98t59.5 162.5t23 236.5q0 112 -15.5 202t-44 149.5t-64 102t-79.5 65t-86 32.5t-88 10t-88 -10t-86 -32.5t-79.5 -65t-64 -102t-44 -149.5t-15.5 -202zM479 1581l209 369h209l-274 -369h-144z" />
<glyph unicode="&#xd4;" d="M102 729q0 158 33 285.5t88 211t129.5 140t154 80.5t165.5 24t165.5 -24t154 -80.5t129 -140t87.5 -211t33 -285.5t-33 -285.5t-87.5 -211t-129 -140t-154 -80.5t-165.5 -24t-165.5 24t-154 80.5t-129.5 140t-88 211t-33 285.5zM295 729q0 -134 23 -236.5t59.5 -162.5 t88 -98t101 -51t105.5 -13t105.5 13t101 51t88 98t59.5 162.5t23 236.5q0 112 -15.5 202t-44 149.5t-64 102t-79.5 65t-86 32.5t-88 10t-88 -10t-86 -32.5t-79.5 -65t-64 -102t-44 -149.5t-15.5 -202zM403 1581l211 369h154l203 -369h-152l-127 221l-139 -221h-150z" />
<glyph unicode="&#xd5;" d="M102 729q0 158 33 285.5t88 211t129.5 140t154 80.5t165.5 24t165.5 -24t154 -80.5t129 -140t87.5 -211t33 -285.5t-33 -285.5t-87.5 -211t-129 -140t-154 -80.5t-165.5 -24t-165.5 24t-154 80.5t-129.5 140t-88 211t-33 285.5zM295 729q0 -134 23 -236.5t59.5 -162.5 t88 -98t101 -51t105.5 -13t105.5 13t101 51t88 98t59.5 162.5t23 236.5q0 112 -15.5 202t-44 149.5t-64 102t-79.5 65t-86 32.5t-88 10t-88 -10t-86 -32.5t-79.5 -65t-64 -102t-44 -149.5t-15.5 -202zM338 1622q47 223 199 223q52 0 146 -36.5t140 -36.5q44 0 65 20t40 68 l110 -23q-17 -103 -60.5 -163t-129.5 -60q-52 0 -147 37t-144 37q-51 0 -71 -21.5t-33 -67.5z" />
<glyph unicode="&#xd6;" d="M102 729q0 158 33 285.5t88 211t129.5 140t154 80.5t165.5 24t165.5 -24t154 -80.5t129 -140t87.5 -211t33 -285.5t-33 -285.5t-87.5 -211t-129 -140t-154 -80.5t-165.5 -24t-165.5 24t-154 80.5t-129.5 140t-88 211t-33 285.5zM295 729q0 -134 23 -236.5t59.5 -162.5 t88 -98t101 -51t105.5 -13t105.5 13t101 51t88 98t59.5 162.5t23 236.5q0 112 -15.5 202t-44 149.5t-64 102t-79.5 65t-86 32.5t-88 10t-88 -10t-86 -32.5t-79.5 -65t-64 -102t-44 -149.5t-15.5 -202zM354 1731q0 53 35.5 88.5t87.5 35.5q53 0 89 -36t36 -88t-36 -87.5 t-89 -35.5t-88 35t-35 88zM741 1731q0 53 35.5 88.5t87.5 35.5q53 0 89 -36t36 -88t-36 -87.5t-89 -35.5q-52 0 -87.5 35t-35.5 88z" />
<glyph unicode="&#xd7;" horiz-adv-x="1081" d="M96 319l332 330l-332 332l113 115l332 -332l329 330l115 -113l-332 -332l332 -330l-115 -112l-329 330l-332 -332z" />
<glyph unicode="&#xd8;" d="M102 729q0 158 33 285.5t88 211t129.5 140t154 80.5t165.5 24q172 0 303 -94l90 156l109 -62l-103 -178q170 -202 170 -563q0 -158 -33 -285.5t-87.5 -211t-129 -140t-154 -80.5t-165.5 -24q-168 0 -301 88l-90 -158l-109 64l102 180q-172 201 -172 567zM295 729 q0 -256 80 -393l510 885q-89 69 -213 69q-46 0 -88 -10t-86 -32.5t-79.5 -65t-64 -102t-44 -149.5t-15.5 -202zM461 233q84 -65 211 -65q56 0 105.5 13t101 51t88 98t59.5 162.5t23 236.5q0 246 -78 389z" />
<glyph unicode="&#xd9;" horiz-adv-x="1218" d="M123 446v1012h188v-997q0 -139 75.5 -216t223.5 -77t222.5 76.5t74.5 216.5v997h189v-1012q0 -218 -130.5 -338t-355.5 -120t-356 120t-131 338zM410 1950h208l209 -369h-143z" />
<glyph unicode="&#xda;" horiz-adv-x="1218" d="M123 446v1012h188v-997q0 -139 75.5 -216t223.5 -77t222.5 76.5t74.5 216.5v997h189v-1012q0 -218 -130.5 -338t-355.5 -120t-356 120t-131 338zM410 1581l208 369h209l-274 -369h-143z" />
<glyph unicode="&#xdb;" horiz-adv-x="1218" d="M123 446v1012h188v-997q0 -139 75.5 -216t223.5 -77t222.5 76.5t74.5 216.5v997h189v-1012q0 -218 -130.5 -338t-355.5 -120t-356 120t-131 338zM336 1581l211 369h153l203 -369h-151l-127 221l-140 -221h-149z" />
<glyph unicode="&#xdc;" horiz-adv-x="1218" d="M123 446v1012h188v-997q0 -139 75.5 -216t223.5 -77t222.5 76.5t74.5 216.5v997h189v-1012q0 -218 -130.5 -338t-355.5 -120t-356 120t-131 338zM301 1720q0 53 35.5 89t87.5 36t88.5 -36.5t36.5 -88.5t-36 -87.5t-89 -35.5q-52 0 -87.5 35.5t-35.5 87.5zM688 1720 q0 53 35.5 89t87.5 36q53 0 89 -36.5t36 -88.5t-36 -87.5t-89 -35.5t-88 35.5t-35 87.5z" />
<glyph unicode="&#xdd;" horiz-adv-x="1077" d="M4 1458h201l334 -661l333 661h201l-440 -895v-563h-189v563zM426 1581l209 369h209l-275 -369h-143z" />
<glyph unicode="&#xde;" horiz-adv-x="1118" d="M123 0v1458h188v-233h287q218 0 338.5 -119t120.5 -322q0 -201 -120 -315.5t-339 -114.5h-287v-354h-188zM311 535h273q134 0 207 62t73 187q0 126 -74 193t-206 67h-273v-509z" />
<glyph unicode="&#xdf;" horiz-adv-x="1247" d="M63 870v168h115q5 197 116 314.5t331 117.5q207 0 327.5 -101t120.5 -259q0 -109 -60 -199t-159 -133q92 -29 158 -75t100.5 -101t50 -108t15.5 -109q0 -119 -64 -211t-164 -139t-215 -47q-143 0 -239 61v154q118 -39 221 -39q115 0 193.5 59t78.5 170q0 59 -24.5 105.5 t-63 74.5t-90.5 46t-102 25t-103 7v156h62q96 30 156.5 109t60.5 167q0 92 -71 151.5t-196 59.5q-129 0 -192.5 -66t-63.5 -188v-1040h-184v870h-115z" />
<glyph unicode="&#xe0;" horiz-adv-x="1019" d="M70 291q0 145 95 223.5t273 89.5l275 17v51q0 98 -54.5 150t-158.5 52q-153 0 -226 -94l-151 43q31 100 138 164t249 64q179 0 283 -101t104 -258v-692h-174l-4 76q-115 -88 -287 -88q-160 0 -261 75t-101 228zM258 295q0 -28 7 -49t25.5 -41t57.5 -30.5t98 -10.5 q171 0 267 119v192l-275 -16q-180 -11 -180 -164zM285 1540h209l208 -369h-143z" />
<glyph unicode="&#xe1;" horiz-adv-x="1019" d="M70 291q0 145 95 223.5t273 89.5l275 17v51q0 98 -54.5 150t-158.5 52q-153 0 -226 -94l-151 43q31 100 138 164t249 64q179 0 283 -101t104 -258v-692h-174l-4 76q-115 -88 -287 -88q-160 0 -261 75t-101 228zM258 295q0 -28 7 -49t25.5 -41t57.5 -30.5t98 -10.5 q171 0 267 119v192l-275 -16q-180 -11 -180 -164zM367 1171l208 369h209l-274 -369h-143z" />
<glyph unicode="&#xe2;" horiz-adv-x="1019" d="M70 291q0 145 95 223.5t273 89.5l275 17v51q0 98 -54.5 150t-158.5 52q-153 0 -226 -94l-151 43q31 100 138 164t249 64q179 0 283 -101t104 -258v-692h-174l-4 76q-115 -88 -287 -88q-160 0 -261 75t-101 228zM231 1171l211 369h154l203 -369h-152l-127 222l-139 -222 h-150zM258 295q0 -28 7 -49t25.5 -41t57.5 -30.5t98 -10.5q171 0 267 119v192l-275 -16q-180 -11 -180 -164z" />
<glyph unicode="&#xe3;" horiz-adv-x="1028" d="M70 291q0 145 95 223.5t273 89.5l275 17v51q0 98 -54.5 150t-158.5 52q-153 0 -226 -94l-151 43q31 100 138 164t249 64q179 0 283 -101t104 -258v-692h-174l-4 76q-115 -88 -287 -88q-160 0 -261 75t-101 228zM164 1212q47 224 198 224q52 0 146.5 -37t140.5 -37 q44 0 65 20t40 68l110 -23q-17 -103 -60.5 -163t-129.5 -60q-52 0 -147 37t-144 37q-51 0 -71.5 -21.5t-32.5 -66.5zM258 295q0 -28 7 -49t25.5 -41t57.5 -30.5t98 -10.5q171 0 267 119v192l-275 -16q-180 -11 -180 -164z" />
<glyph unicode="&#xe4;" horiz-adv-x="1019" d="M70 291q0 145 95 223.5t273 89.5l275 17v51q0 98 -54.5 150t-158.5 52q-153 0 -226 -94l-151 43q31 100 138 164t249 64q179 0 283 -101t104 -258v-692h-174l-4 76q-115 -88 -287 -88q-160 0 -261 75t-101 228zM207 1311q0 53 35.5 89t87.5 36t88.5 -36t36.5 -89 q0 -52 -36 -87.5t-89 -35.5q-52 0 -87.5 35t-35.5 88zM258 295q0 -28 7 -49t25.5 -41t57.5 -30.5t98 -10.5q171 0 267 119v192l-275 -16q-180 -11 -180 -164zM594 1311q0 53 35.5 89t87.5 36q53 0 89 -36t36 -89q0 -52 -36 -87.5t-89 -35.5t-88 35t-35 88z" />
<glyph unicode="&#xe5;" horiz-adv-x="1019" d="M70 291q0 145 95 223.5t273 89.5l275 17v51q0 98 -54.5 150t-158.5 52q-153 0 -226 -94l-151 43q31 100 138 164t249 64q179 0 283 -101t104 -258v-692h-174l-4 76q-115 -88 -287 -88q-160 0 -261 75t-101 228zM258 295q0 -28 7 -49t25.5 -41t57.5 -30.5t98 -10.5 q171 0 267 119v192l-275 -16q-180 -11 -180 -164zM365 1311q0 66 46.5 112.5t112.5 46.5t113 -46.5t47 -112.5t-47 -113t-113 -47t-112.5 47t-46.5 113z" />
<glyph unicode="&#xe6;" horiz-adv-x="1689" d="M70 291q0 145 95 223.5t273 89.5l275 17v51q0 98 -54.5 150t-158.5 52q-153 0 -226 -94l-151 43q31 100 138 164t249 64q208 0 317 -142q58 65 149.5 103.5t194.5 38.5q66 0 128.5 -15.5t121.5 -52.5t102.5 -91.5t70 -138t26.5 -186.5v-53l-723 -31q19 -319 274 -319 q176 0 252 129l164 -43q-35 -125 -148 -193.5t-257 -68.5q-117 0 -220.5 44.5t-160.5 125.5q-135 -170 -363 -170q-166 0 -267 75t-101 228zM258 295q0 -28 7 -49t25.5 -41t57.5 -30.5t98 -10.5q171 0 267 119v192l-275 -16q-180 -11 -180 -164zM899 627l526 22 q-6 54 -25.5 95.5t-45.5 65.5t-60.5 39t-65 20t-63.5 5q-231 0 -266 -247z" />
<glyph unicode="&#xe7;" horiz-adv-x="978" d="M70 518q0 141 39 247.5t106 167t147 89.5t173 29q140 0 240 -65.5t134 -188.5l-164 -43q-64 120 -217 120q-41 0 -76 -8t-72 -32t-63 -62t-42.5 -103t-16.5 -151q0 -85 16.5 -149.5t42.5 -102.5t62.5 -62t71.5 -32t75 -8q154 0 219 129l164 -43q-34 -125 -132.5 -193.5 t-244.5 -68.5q-93 0 -172.5 29t-146 89t-105 166t-38.5 246zM377 -330q79 -35 151 -35q47 0 74 21t27 63q0 75 -86 80l-82 4l47 197h98l-24 -115q36 2 70 -4.5t67 -23t52.5 -49.5t19.5 -80q0 -90 -68 -140.5t-168 -50.5q-99 0 -178 37v96z" />
<glyph unicode="&#xe8;" horiz-adv-x="1052" d="M70 516q0 114 26 206t69.5 152.5t103 101t123.5 58t134 17.5t134 -17.5t123.5 -58t103.5 -100.5t70 -152t26 -205v-53h-723q19 -301 272 -301q178 0 254 129l164 -43q-36 -125 -147 -193.5t-264 -68.5q-95 0 -176.5 29t-148.5 89t-105.5 165t-38.5 245zM262 608h526 q-10 78 -37 133t-65.5 82.5t-77 39t-82.5 11.5q-229 0 -264 -266zM352 1540h209l209 -369h-143z" />
<glyph unicode="&#xe9;" horiz-adv-x="1052" d="M70 516q0 114 26 206t69.5 152.5t103 101t123.5 58t134 17.5t134 -17.5t123.5 -58t103.5 -100.5t70 -152t26 -205v-53h-723q19 -301 272 -301q178 0 254 129l164 -43q-36 -125 -147 -193.5t-264 -68.5q-95 0 -176.5 29t-148.5 89t-105.5 165t-38.5 245zM262 608h526 q-10 78 -37 133t-65.5 82.5t-77 39t-82.5 11.5q-229 0 -264 -266zM352 1171l209 369h209l-274 -369h-144z" />
<glyph unicode="&#xea;" horiz-adv-x="1052" d="M70 516q0 114 26 206t69.5 152.5t103 101t123.5 58t134 17.5t134 -17.5t123.5 -58t103.5 -100.5t70 -152t26 -205v-53h-723q19 -301 272 -301q178 0 254 129l164 -43q-36 -125 -147 -193.5t-264 -68.5q-95 0 -176.5 29t-148.5 89t-105.5 165t-38.5 245zM256 1171l211 369 h154l202 -369h-151l-127 222l-139 -222h-150zM262 608h526q-10 78 -37 133t-65.5 82.5t-77 39t-82.5 11.5q-229 0 -264 -266z" />
<glyph unicode="&#xeb;" horiz-adv-x="1052" d="M70 516q0 114 26 206t69.5 152.5t103 101t123.5 58t134 17.5t134 -17.5t123.5 -58t103.5 -100.5t70 -152t26 -205v-53h-723q19 -301 272 -301q178 0 254 129l164 -43q-36 -125 -147 -193.5t-264 -68.5q-95 0 -176.5 29t-148.5 89t-105.5 165t-38.5 245zM223 1311 q0 53 35.5 89t87.5 36t88.5 -36t36.5 -89q0 -52 -36 -87.5t-89 -35.5q-52 0 -87.5 35t-35.5 88zM262 608h526q-10 78 -37 133t-65.5 82.5t-77 39t-82.5 11.5q-229 0 -264 -266zM610 1311q0 53 35.5 89t87.5 36q53 0 89 -36t36 -89q0 -52 -36 -87.5t-89 -35.5t-88 35t-35 88z " />
<glyph unicode="&#xec;" horiz-adv-x="724" d="M31 1540h209l209 -369h-144zM70 0v168h215v702h-215v168h399v-870h215v-168h-614z" />
<glyph unicode="&#xed;" horiz-adv-x="724" d="M70 0v168h215v702h-215v168h399v-870h215v-168h-614zM174 1171l209 369h209l-275 -369h-143z" />
<glyph unicode="&#xee;" horiz-adv-x="724" d="M70 0v168h215v702h-215v168h399v-870h215v-168h-614zM88 1171l211 369h154l202 -369h-151l-127 222l-139 -222h-150z" />
<glyph unicode="&#xef;" horiz-adv-x="739" d="M53 1311q0 53 35.5 89t87.5 36t88.5 -36t36.5 -89q0 -52 -36 -87.5t-89 -35.5q-52 0 -87.5 35t-35.5 88zM63 0v168h216v702h-216v168h400v-870h215v-168h-615zM440 1311q0 53 35.5 89t87.5 36q53 0 89 -36t36 -89q0 -52 -36 -87.5t-89 -35.5t-88 35t-35 88z" />
<glyph unicode="&#xf0;" horiz-adv-x="1050" d="M70 520q0 140 39 246t105.5 166.5t145 89.5t166.5 29q25 0 35 -2l-96 147l-227 -70l-39 136l186 55l-137 213h213l104 -158l223 68l37 -135l-180 -56l197 -293q139 -209 139 -452q0 -107 -26 -195t-70 -146.5t-103.5 -98.5t-124.5 -58t-135 -18q-69 0 -132 17.5 t-122 57.5t-102.5 100t-69.5 152t-26 205zM258 518q0 -85 16.5 -149.5t42.5 -102.5t62.5 -62t71.5 -32t75 -8t75 8t71.5 32t62 62t42 102.5t16.5 149.5q0 86 -16.5 151t-42 103t-62 62t-71.5 32t-75 8t-75 -8t-71.5 -32t-62.5 -62t-42.5 -103t-16.5 -151z" />
<glyph unicode="&#xf1;" horiz-adv-x="1071" d="M135 0v1038h174l4 -90q109 103 256 103q54 0 105 -13.5t99 -46t84 -81t57.5 -123t21.5 -166.5v-621h-184v602q0 82 -18.5 138.5t-51 84t-65 38.5t-70.5 11t-71 -10t-66.5 -34.5t-57.5 -74t-33 -120.5v-635h-184zM193 1212q47 224 198 224q52 0 146.5 -37t140.5 -37 q44 0 64.5 20t39.5 68l111 -23q-17 -102 -61 -162.5t-130 -60.5q-52 0 -146 37t-144 37q-51 0 -72 -21.5t-33 -66.5z" />
<glyph unicode="&#xf2;" horiz-adv-x="1050" d="M70 518q0 113 26 205t69.5 152t103 100.5t123.5 58t134 17.5q69 0 133 -17.5t123.5 -58t103 -100.5t69.5 -152t26 -205t-26 -204t-69.5 -151t-103 -100t-123.5 -57.5t-133 -17.5q-70 0 -134 17.5t-123.5 57.5t-103 100t-69.5 151t-26 204zM258 518q0 -85 16.5 -149.5 t42.5 -102.5t62.5 -62t71.5 -32t75 -8t75 8t71.5 32t62 62t42 102.5t16.5 149.5q0 86 -16.5 151t-42 103t-62 62t-71.5 32t-75 8t-75 -8t-71.5 -32t-62.5 -62t-42.5 -103t-16.5 -151zM354 1540h209l209 -369h-143z" />
<glyph unicode="&#xf3;" horiz-adv-x="1050" d="M70 518q0 113 26 205t69.5 152t103 100.5t123.5 58t134 17.5q69 0 133 -17.5t123.5 -58t103 -100.5t69.5 -152t26 -205t-26 -204t-69.5 -151t-103 -100t-123.5 -57.5t-133 -17.5q-70 0 -134 17.5t-123.5 57.5t-103 100t-69.5 151t-26 204zM258 518q0 -85 16.5 -149.5 t42.5 -102.5t62.5 -62t71.5 -32t75 -8t75 8t71.5 32t62 62t42 102.5t16.5 149.5q0 86 -16.5 151t-42 103t-62 62t-71.5 32t-75 8t-75 -8t-71.5 -32t-62.5 -62t-42.5 -103t-16.5 -151zM354 1171l209 369h209l-274 -369h-144z" />
<glyph unicode="&#xf4;" horiz-adv-x="1050" d="M70 518q0 113 26 205t69.5 152t103 100.5t123.5 58t134 17.5q69 0 133 -17.5t123.5 -58t103 -100.5t69.5 -152t26 -205t-26 -204t-69.5 -151t-103 -100t-123.5 -57.5t-133 -17.5q-70 0 -134 17.5t-123.5 57.5t-103 100t-69.5 151t-26 204zM244 1171l211 369h153l203 -369 h-152l-127 222l-139 -222h-149zM258 518q0 -85 16.5 -149.5t42.5 -102.5t62.5 -62t71.5 -32t75 -8t75 8t71.5 32t62 62t42 102.5t16.5 149.5q0 86 -16.5 151t-42 103t-62 62t-71.5 32t-75 8t-75 -8t-71.5 -32t-62.5 -62t-42.5 -103t-16.5 -151z" />
<glyph unicode="&#xf5;" horiz-adv-x="1050" d="M70 518q0 113 26 205t69.5 152t103 100.5t123.5 58t134 17.5q69 0 133 -17.5t123.5 -58t103 -100.5t69.5 -152t26 -205t-26 -204t-69.5 -151t-103 -100t-123.5 -57.5t-133 -17.5q-70 0 -134 17.5t-123.5 57.5t-103 100t-69.5 151t-26 204zM193 1212q47 224 198 224 q52 0 146.5 -37t140.5 -37q44 0 64.5 20t39.5 68l111 -23q-17 -102 -61 -162.5t-130 -60.5q-52 0 -146 37t-144 37q-51 0 -72 -21.5t-33 -66.5zM258 518q0 -85 16.5 -149.5t42.5 -102.5t62.5 -62t71.5 -32t75 -8t75 8t71.5 32t62 62t42 102.5t16.5 149.5q0 86 -16.5 151 t-42 103t-62 62t-71.5 32t-75 8t-75 -8t-71.5 -32t-62.5 -62t-42.5 -103t-16.5 -151z" />
<glyph unicode="&#xf6;" horiz-adv-x="1050" d="M70 518q0 113 26 205t69.5 152t103 100.5t123.5 58t134 17.5q69 0 133 -17.5t123.5 -58t103 -100.5t69.5 -152t26 -205t-26 -204t-69.5 -151t-103 -100t-123.5 -57.5t-133 -17.5q-70 0 -134 17.5t-123.5 57.5t-103 100t-69.5 151t-26 204zM207 1311q0 53 35.5 89t87.5 36 t88.5 -36t36.5 -89q0 -52 -36 -87.5t-89 -35.5q-52 0 -87.5 35t-35.5 88zM258 518q0 -85 16.5 -149.5t42.5 -102.5t62.5 -62t71.5 -32t75 -8t75 8t71.5 32t62 62t42 102.5t16.5 149.5q0 86 -16.5 151t-42 103t-62 62t-71.5 32t-75 8t-75 -8t-71.5 -32t-62.5 -62t-42.5 -103 t-16.5 -151zM594 1311q0 53 35.5 89t87.5 36q53 0 89 -36t36 -89q0 -52 -36 -87.5t-89 -35.5t-88 35t-35 88z" />
<glyph unicode="&#xf7;" horiz-adv-x="1124" d="M96 569v160h932v-160h-932zM426 313q0 57 40 97.5t97 40.5t97 -40.5t40 -97.5t-40 -97t-97 -40t-97 40t-40 97zM426 987q0 57 40 97t97 40t97 -40t40 -97t-40 -97t-97 -40t-97 40t-40 97z" />
<glyph unicode="&#xf8;" horiz-adv-x="1050" d="M70 518q0 113 26 205t69.5 152t103 100.5t123.5 58t134 17.5q123 0 230 -58l73 119l103 -59l-84 -133q133 -140 133 -402q0 -113 -26 -204t-69.5 -151t-103 -100t-123.5 -57.5t-133 -17.5q-125 0 -225 53l-80 -127l-100 61l86 138q-137 140 -137 405zM258 518 q0 -152 51 -239l353 563q-55 32 -136 32q-40 0 -75 -8t-71.5 -32t-62.5 -62t-42.5 -103t-16.5 -151zM395 195q58 -31 131 -31q40 0 75 8t71.5 32t62 62t42 102.5t16.5 149.5q0 145 -50 236z" />
<glyph unicode="&#xf9;" horiz-adv-x="1091" d="M135 418v620h184v-602q0 -272 209 -272q30 0 58 5.5t59.5 21.5t55.5 41.5t43.5 69.5t27.5 101v635h184v-1038h-174l-6 92q-116 -104 -272 -104q-70 0 -132.5 23t-117 71.5t-87 134.5t-32.5 201zM360 1540h209l209 -369h-143z" />
<glyph unicode="&#xfa;" horiz-adv-x="1091" d="M135 418v620h184v-602q0 -272 209 -272q30 0 58 5.5t59.5 21.5t55.5 41.5t43.5 69.5t27.5 101v635h184v-1038h-174l-6 92q-116 -104 -272 -104q-70 0 -132.5 23t-117 71.5t-87 134.5t-32.5 201zM360 1171l209 369h209l-274 -369h-144z" />
<glyph unicode="&#xfb;" horiz-adv-x="1091" d="M135 418v620h184v-602q0 -272 209 -272q30 0 58 5.5t59.5 21.5t55.5 41.5t43.5 69.5t27.5 101v635h184v-1038h-174l-6 92q-116 -104 -272 -104q-70 0 -132.5 23t-117 71.5t-87 134.5t-32.5 201zM256 1171l211 369h154l202 -369h-151l-127 222l-139 -222h-150z" />
<glyph unicode="&#xfc;" horiz-adv-x="1091" d="M135 418v620h184v-602q0 -272 209 -272q30 0 58 5.5t59.5 21.5t55.5 41.5t43.5 69.5t27.5 101v635h184v-1038h-174l-6 92q-116 -104 -272 -104q-70 0 -132.5 23t-117 71.5t-87 134.5t-32.5 201zM231 1311q0 53 35.5 89t87.5 36t88.5 -36t36.5 -89q0 -52 -36 -87.5 t-89 -35.5q-52 0 -87.5 35t-35.5 88zM618 1311q0 53 35.5 89t87.5 36q53 0 89 -36t36 -89q0 -52 -36 -87.5t-89 -35.5t-88 35t-35 88z" />
<glyph unicode="&#xfd;" horiz-adv-x="931" d="M4 1038h201l260 -741l262 741h201l-531 -1458h-184l158 449zM311 1171l209 369h209l-274 -369h-144z" />
<glyph unicode="&#xfe;" horiz-adv-x="1112" d="M135 -420v1878h184v-518q111 111 277 111q66 0 127.5 -17.5t120.5 -58t102 -100.5t69.5 -152t26.5 -205q0 -140 -39.5 -246t-105.5 -166t-142 -89t-159 -29q-166 0 -277 108v-516h-184zM319 467q36 -303 273 -303q39 0 73 8t70 32t61.5 62t41.5 103t16 151 q0 354 -266 354q-44 0 -83.5 -11t-79 -37.5t-68 -80.5t-38.5 -131v-147z" />
<glyph unicode="&#xff;" horiz-adv-x="931" d="M4 1038h201l260 -741l262 741h201l-531 -1458h-184l158 449zM162 1311q0 53 35.5 89t87.5 36q53 0 89 -36t36 -89q0 -52 -36 -87.5t-89 -35.5t-88 35t-35 88zM549 1311q0 53 35.5 89t87.5 36t88.5 -36t36.5 -89q0 -52 -36 -87.5t-89 -35.5q-52 0 -87.5 35t-35.5 88z" />
<glyph unicode="&#x152;" horiz-adv-x="1998" d="M102 729q0 158 33 285.5t88 211t129.5 140t154 80.5t165.5 24q229 0 377 -155v143h888v-180h-700v-453h514v-180h-514v-465h700v-180h-888v141q-149 -153 -377 -153q-86 0 -165.5 24t-154 80.5t-129.5 140t-88 211t-33 285.5zM295 729q0 -134 23 -236.5t59.5 -162.5 t88 -98t101 -51t105.5 -13t105.5 13t101 51t88 98t59.5 162.5t23 236.5q0 112 -15.5 202t-44 149.5t-64 102t-79.5 65t-86 32.5t-88 10t-88 -10t-86 -32.5t-79.5 -65t-64 -102t-44 -149.5t-15.5 -202z" />
<glyph unicode="&#x153;" horiz-adv-x="1771" d="M70 518q0 113 26 205t69.5 152t103 100.5t123.5 58t134 17.5q106 0 201 -44t158 -133q63 90 158 133.5t202 43.5q70 0 134 -17.5t123.5 -58t103.5 -100.5t70 -152t26 -205v-53h-723q19 -301 272 -301q178 0 254 129l164 -43q-36 -125 -147.5 -193.5t-264.5 -68.5 q-115 0 -213 43t-161 131q-63 -88 -157 -131t-200 -43q-70 0 -134 17.5t-123.5 57.5t-103 100t-69.5 151t-26 204zM258 518q0 -85 16.5 -149.5t42.5 -102.5t62.5 -62t71.5 -32t75 -8t75 8t71.5 32t62 62t42 102.5t16.5 149.5q0 86 -16.5 151t-42 103t-62 62t-71.5 32t-75 8 t-75 -8t-71.5 -32t-62.5 -62t-42.5 -103t-16.5 -151zM977 608h530q-10 78 -37 133t-65.5 82.5t-77 39t-82.5 11.5q-233 0 -268 -266z" />
<glyph unicode="&#x178;" horiz-adv-x="1077" d="M4 1458h201l334 -661l333 661h201l-440 -895v-563h-189v563zM221 1720q0 53 35.5 89t87.5 36t88.5 -36.5t36.5 -88.5t-36 -87.5t-89 -35.5q-52 0 -87.5 35.5t-35.5 87.5zM608 1720q0 53 35.5 89t87.5 36q53 0 89 -36.5t36 -88.5t-36 -87.5t-89 -35.5t-88 35.5t-35 87.5z " />
<glyph unicode="&#x2c6;" horiz-adv-x="391" d="M-88 1171l211 369h153l203 -369h-151l-127 222l-140 -222h-149z" />
<glyph unicode="&#x2dc;" horiz-adv-x="462" d="M-119 1212q47 224 199 224q52 0 146.5 -37t140.5 -37q44 0 64.5 20t39.5 68l111 -23q-17 -102 -61 -162.5t-130 -60.5q-52 0 -146.5 37t-144.5 37q-51 0 -71.5 -21.5t-32.5 -66.5z" />
<glyph unicode="&#x2000;" horiz-adv-x="975" />
<glyph unicode="&#x2001;" horiz-adv-x="1950" />
<glyph unicode="&#x2002;" horiz-adv-x="975" />
<glyph unicode="&#x2003;" horiz-adv-x="1950" />
<glyph unicode="&#x2004;" horiz-adv-x="650" />
<glyph unicode="&#x2005;" horiz-adv-x="487" />
<glyph unicode="&#x2006;" horiz-adv-x="325" />
<glyph unicode="&#x2007;" horiz-adv-x="325" />
<glyph unicode="&#x2008;" horiz-adv-x="243" />
<glyph unicode="&#x2009;" horiz-adv-x="390" />
<glyph unicode="&#x200a;" horiz-adv-x="108" />
<glyph unicode="&#x2010;" horiz-adv-x="833" d="M109 487v160h616v-160h-616z" />
<glyph unicode="&#x2011;" horiz-adv-x="833" d="M109 487v160h616v-160h-616z" />
<glyph unicode="&#x2012;" horiz-adv-x="833" d="M109 487v160h616v-160h-616z" />
<glyph unicode="&#x2013;" horiz-adv-x="1024" d="M0 487v160h1024v-160h-1024z" />
<glyph unicode="&#x2014;" horiz-adv-x="2009" d="M0 487v160h2009v-160h-2009z" />
<glyph unicode="&#x2018;" horiz-adv-x="530" d="M141 1130q0 36 21 89l100 254h109l-56 -224q34 -14 54 -44.5t20 -69.5q0 -53 -35.5 -89t-87.5 -36t-88.5 36t-36.5 84z" />
<glyph unicode="&#x2019;" horiz-adv-x="530" d="M141 1348q0 53 35.5 89t87.5 36t88.5 -36.5t36.5 -84.5q0 -38 -20 -88l-101 -254h-108l55 223q-34 14 -54 44.5t-20 70.5z" />
<glyph unicode="&#x201a;" horiz-adv-x="530" d="M141 119q0 53 35.5 89t87.5 36t88.5 -36.5t36.5 -84.5q0 -38 -20 -88l-101 -254h-108l55 223q-34 14 -54 44.5t-20 70.5z" />
<glyph unicode="&#x201c;" horiz-adv-x="720" d="M78 1130q0 39 20 89l101 254h108l-55 -224q34 -14 54 -44.5t20 -69.5q0 -53 -35.5 -89t-87.5 -36t-88.5 36t-36.5 84zM395 1130q0 36 21 89l100 254h109l-56 -224q34 -14 54 -44.5t20 -69.5q0 -53 -35.5 -89t-87.5 -36t-88.5 36t-36.5 84z" />
<glyph unicode="&#x201d;" horiz-adv-x="720" d="M78 1348q0 53 35.5 89t87.5 36t88.5 -36.5t36.5 -84.5q0 -36 -21 -88l-100 -254h-109l56 223q-34 14 -54 44.5t-20 70.5zM395 1348q0 53 35.5 89t87.5 36t88.5 -36.5t36.5 -84.5q0 -38 -20 -88l-101 -254h-108l55 223q-34 14 -54 44.5t-20 70.5z" />
<glyph unicode="&#x201e;" horiz-adv-x="720" d="M78 119q0 53 35.5 89t87.5 36t88.5 -36.5t36.5 -84.5q0 -35 -21 -88l-100 -254h-109l56 223q-34 14 -54 44.5t-20 70.5zM395 119q0 53 35.5 89t87.5 36t88.5 -36.5t36.5 -84.5q0 -38 -20 -88l-101 -254h-108l55 223q-34 14 -54 44.5t-20 70.5z" />
<glyph unicode="&#x2022;" horiz-adv-x="987" d="M147 729q0 142 102 244t245 102q142 0 244 -101.5t102 -244.5t-102 -244.5t-244 -101.5q-143 0 -245 102t-102 244z" />
<glyph unicode="&#x2026;" horiz-adv-x="2048" d="M238 119q0 53 35 89t87 36t88.5 -36t36.5 -89q0 -52 -36 -87.5t-89 -35.5q-52 0 -87 35t-35 88zM899 119q0 53 35.5 89t87.5 36t88.5 -36t36.5 -89q0 -52 -36 -87.5t-89 -35.5q-52 0 -87.5 35t-35.5 88zM1563 119q0 53 35.5 89t87.5 36t88 -36t36 -89q0 -52 -35.5 -87.5 t-88.5 -35.5q-52 0 -87.5 35t-35.5 88z" />
<glyph unicode="&#x202f;" horiz-adv-x="390" />
<glyph unicode="&#x2039;" horiz-adv-x="643" d="M94 567l408 404l47 -121l-246 -283l246 -282l-47 -121z" />
<glyph unicode="&#x203a;" horiz-adv-x="643" d="M94 285l246 282l-246 283l47 121l408 -404l-408 -403z" />
<glyph unicode="&#x205f;" horiz-adv-x="487" />
<glyph unicode="&#x20ac;" horiz-adv-x="1210" d="M31 518l20 133h133q-2 25 -2 78q0 61 2 90h-133l21 133h127q23 136 74 239t119 162t143 88t155 29q70 0 135 -21.5t126 -65.5t110.5 -120.5t79.5 -179.5l-164 -45q-74 252 -287 252q-37 0 -71 -8.5t-71 -32t-66.5 -60.5t-54 -97.5t-38.5 -139.5h436l-20 -133h-430 q-2 -29 -2 -90q0 -53 2 -78h409l-20 -133h-377q14 -82 39 -145.5t55 -101.5t67 -62t71.5 -32.5t72.5 -8.5q209 0 283 244l166 -37q-30 -103 -79.5 -179.5t-110.5 -120.5t-126 -65.5t-135 -21.5q-65 0 -126 17.5t-120.5 58t-107.5 100.5t-85 150.5t-54 203.5h-166z" />
<glyph unicode="&#x2122;" horiz-adv-x="1282" d="M82 1364v106h457v-106h-174v-520h-107v520h-176zM625 844v626h116l136 -253l137 253h112v-626h-108v409l-107 -200h-67l-109 200v-409h-110z" />
<glyph unicode="&#x25fc;" horiz-adv-x="1034" d="M0 0v1034h1034v-1034h-1034z" />
</font>
</defs>
</svg>
